Details for this torrent 


Type SE
Warning! Use a VPN When Downloading Torrents!
Your ISP is tracking your torrent activity Including your IP Address and your Location!
We strongly recommend using ExpressVPN to anonymize your torrenting. 30 Day Money Back Guarantee!
HIDE MY IP
Have I Got a Bit More News for You S60E07. revittony
Type:
Video > TV shows
Files:
1
Size:
502.89 MiB (527322555 Bytes)
Uploaded:
2020-11-22 12:02:31 GMT
By:
revittony1 Trusted
Seeders:
2
Leechers:
1
Comments
0  

Info Hash:
2FFF74B067FA4968EC75B3BD01B33CFBF9314489







(Problems with magnets links are fixed by upgrading your torrent client!)
https://www.imdb.com/title/tt0098820Format : MPEG-4 Format profile : Base Media Codec ID : isom (isom/iso2/avc1/mp41) Overall bit rate : 1 634 kb/s Video ID : 1 Format : AVC Format/Info : Advanced Video Codec Format profile : [email protected] Format settings : CABAC / 4 Ref Frames Format settings, CABAC : Yes Format settings, Reference frames : 4 frames Format settings, GOP : M=8, N=96 Codec ID : avc1 Codec ID/Info : Advanced Video Coding Duration : 41 min 59 s Bit rate : 1 534 kb/s Width : 960 pixels Height : 540 pixels Display aspect ratio : 16:9 Frame rate mode : Constant Frame rate : 25.000 FPS Color space : YUV Chroma subsampling : 4:2:0 Bit depth : 8 bits Scan type : Progressive Bits/(Pixel*Frame) : 0.118 Stream size : 461 MiB (94%) Color range : Limited Color primaries : BT.709 Transfer characteristics : BT.709 Matrix coefficients : BT.709 Codec configuration box : avcC Audio ID : 2 Format : AAC LC SBR Format/Info : Advanced Audio Codec Low Complexity with Spectral Band Replication Commercial name : HE-AAC Format settings : Implicit Codec ID : mp4a-40-2 Duration : 41 min 59 s Bit rate mode : Constant Bit rate : 96.0 kb/s Channel(s) : 2 channels Channel layout : L R Sampling rate : 48.0 kHz Frame rate : 23.438 FPS (2048 SPF) Compression mode : Lossy Stream size : 28.8 MiB (6%) Language : English Default : Yes Alternate group : 1




Type SE
Warning! Use a VPN When Downloading Torrents!
Your ISP is tracking your torrent activity Including your IP Address and your Location!
We strongly recommend using ExpressVPN to anonymize your torrenting. 30 Day Money Back Guarantee!
HIDE MY IP

Bitcoin (BTC Only) : 1z8Tep4BNS79W3kYH8CHA8tWj6nuHYcCM
TRON (TRX Only) : 0x705c127743410c23f69e3f56ac0a654879181c41

The Pirate bay proxy List
Pirate bay proxy list